designday
» » Masahiko Satoh Trio - Transformation '69/'71

Masahiko Satoh Trio - Transformation '69/'71 FLAC album

Опубликовано: 8 июл. 2017 г. Masahiko Sato - Transformation '69/'71 (DTHK-002) Tsuyoshi Yamamoto Trio"Live at Misty" Full Album- Продолжительность: 3. .

Слушайте Satoh Masahiko Trio в формате mp3 прямо сейчас, без кодов, смс и регистации.

Recorded on March 17, 1969, March 20, 1969 and March 2, 1971. Title is also given as トランスフォーメイション’69/’71 and artist as 佐藤允彦トリオ.

Transformation Part II (i) - 3:41. Personnel: Masahiko Satoh - piano. Yasuo Arakawa - bass. Masahiko Togashi - drums, percussion. View first unread post Johannes Enders Trio - Mondgovel (2011) ; mp3, 320 kbps by Mike1985 25 Oct 2018, 06:18 in Jazz (lossy - mp3). 0. 131. by Mike1985 View the latest post 25 Oct 2018, 06:18. View first unread post Masahiko Togashi - Session in Paris, Vol. 1 "Song Of Soil" (1979/2012) ; FLAC (tracks+. cue) by Mike1985 15 Jan 2019, 10:28 in Avant-Garde Jazz, Free Improvisation (lossless - FLAC, APE, et. 369.

Transformation Part I (i) - 15:13 04. Transformation Part II (i) - 3:41 Состав: Masahiko Satoh - piano Yasuo Arakawa - bass Masahiko Togashi - drums, percussion Recorded on March 17-20, 1969 ( and March 2, 1971 (.07:11:37 FILE "02 - On a Clear Day (You Can See Forever). wav" WAVE INDEX 01 00:00:00 TRACK 03 AUDIO TITLE "Transformation Part I" PERFORMER "Masahiko Satoh" INDEX 00 07:47:59 FILE "03 - Transformation Part . av" WAVE INDEX 01 00:00:00 TRACK 04 AUDIO TITLE "Transformation Part II" PERFORMER "Masahiko Satoh" INDEX 00 15:10:00 FILE. 04 - Transformation Part I. av" WAVE INDEX 01 00:00:00.

Bass – Yasuo Arakawa Percussion – Masahiko Togashi Piano – Masahiko Satoh Producer, Liner Notes – 瀬川昌久. Recorded on March 17, 1969, March 20, 1969 and March 2, 1971.

A1 Tigris (Satoh) - 7:15 A2 On a Clear Day (You Can See Forever) (Lane) - 7:51 B1 Transformation Part I (i) - 15:13 B2 Transformation Part II (i) - 3:41. Bass – Yasuo Arakawa Percussion – Masahiko Togashi Piano – Masahiko Satoh. Express/Toshiba ETP-9041 (Japan). Recorded March 17 & 20, 1969 (A1-A2) and March 2, 1971 (B1 - B2). Thanks to snobb for the addition.

Masahiko Satoh Trio Dog on the 4th Street. Masahiko Satoh Trio Pop Goes the Weasel. Masahiko Satoh Trio Spring Peeper.

Masahiko Satoh - Transformation '69-'71 (1971, 2011, Think!-Japan) Artwork . pg . pg front. jpg . pg 03 - Transformatio. lac. Masahiko Satoh - Transformation '69-'71. Transformation '69-'71.

Tracklist

1 Tigris 7:15
2 On A Clear Day (You Can See For Ever) 7:51
3 Transformation Part 1 15:13
4 Transformation Part 2 3:41

Companies, etc.

  • Phonographic Copyright (p) – EMI Music Japan Inc

Credits

  • Bass – 荒川康男*
  • Drums – 富樫雅彦*
  • Liner Notes [解説] – 尾川雄介*
  • Piano – 佐藤允彦*
  • Reissue Producer [監修] – 塙耕記*, 尾川雄介*

Notes

Tracks 1 and 2 recorded March 17 and 20, 1969. Tracks 3 and 4 recorded March 2, 1971.

Comes in mini LP replica with OBI & Japanese insert.

℗ 1971 EMI Music Japan Inc.
Distributed by disc union.
Made in Japan
¥2,625

Original LP release: Express/EMI ETP-9041

Barcode and Other Identifiers

  • Barcode: 4 988044 976702
  • Rights Society: JASRAC
  • Matrix / Runout: DTHK-002 MT 861
  • Mastering SID Code: IFPI L158
  • Mould SID Code: IFPI 2800
  • ASIN: B005KO61UE

Other versions

Category Artist Title (Format) Label Category Country Year
ETP-9041 Masahiko Satoh Trio* Transformation '69/'71 ‎(LP, Album) Express ETP-9041 Japan 1971
TOCT-9734 Masahiko Satoh Trio* Transformation '69/'71 ‎(CD, Album, RE) Express TOCT-9734 Japan 1996


Masahiko Satoh Trio - Transformation '69/'71 FLAC album
Performer:
Masahiko Satoh Trio
Title:
Transformation '69/'71
Genre:
FLAC size:
1277 mb
MP3 size:
1999 mb
WMA size:
1525 mb
Country:
Released:
Rating:
4.9
Other formats:
RA MMF XM AAC MP1 WMA MP4
© 2018-2021 Copyrights
All rights reserved. designday.fr | Privacy Policy | DMCA | Contacts