designday
» » Bloody Six - In The Name Of Blood

Bloody Six - In The Name Of Blood FLAC album

Band: Bloody six Country: Switzerland Album: In the name of blood Genre: heavy/speed metal Year: 1985 Songs: Side A 1. Starchaser 2. High Class n' Wild . .

Bloody Six. Type: Full-length.

Nom du groupe Bloody Six. Nom de l'album In the Name of Blood. Date de parution 1984. Labels Mausoleum Records Camel Records. Style MusicalHeavy Metal. Membres possèdant cet album8. 2.

Band Name Bloody Six. Album Name In the Name of Blood. Music StyleHeavy Metal. Members owning this album8.

Rights Society: GEMA. Other Versions (2 of 2) View All. Cat.

Listen to music from Bloody Six like Starchaser, Let It Burn & more. Bloody Six was a Heavy Metal band from Switzerland (Wetzikon, Zurich). The band was formed in 1983 under the name Witchcraft, but changed their name to Bloody Six in 1984. The band released a single in 1983 under the label Musk. After the band changed their name to Bloody Six, they released their debut In The Name Of Blood in 1984 under the record label Camel Records. Some time after they released the album, the band split up. Top Tracks.

Assailant (USA-MD) - Nevermore (Unreleased Album). Angeles del Infierno (ESP) - 666 (1988). Anger (DNK) - Reach For The Sky (1987).

AUDIO TITLE "Cold Winds Blow" PERFORMER "Bloody Six" INDEX 01 12:07:00 TRACK 05 AUDIO TITLE "Fuck The Nation" PERFORMER "Bloody Six" INDEX 01 16:07:50 TRACK 06 AUDIO TITLE "Rough Stuff" PERFORMER "Bloody Six" INDEX 01 19:25:50 TRACK 07 AUDIO TITLE "Black Eagle" PERFORMER "Bloody Six" INDEX 01 22:58:15 TRACK 08 AUDIO TITLE "Way Of The. Hunter" PERFORMER "Bloody Six" INDEX 01 27:55:54 TRACK 09 AUDIO TITLE "The End Of The World" PERFORMER "Bloody Six" INDEX 01 32:27:48

In The Name Of Blood. Destroyer 666. Like Bloody Rabid Wolves Unleashed from Chains. Ministry Of Sound Sessions Six 2. Cornelius (The Bloody Beetroots).

Performer: Bloody Six. Album: In The Name Of Blood. Bloody Six - In The Name Of Blood MP3 version.

Tracklist

Intro 1:19
Starchaser 3:29
High-Class 'n Wild 3:56
Let It Burn 3:14
Cold Winds Blow 3:57
Fuck The Nation 3:14
Rough Stuff 3:29
Black Eagle 4:53
Way Of The Hunter 4:27
The End Of The World 5:17

Versions

Category Artist Title (Format) Label Category Country Year
SKULL 8390, SKULL LP 8390 Bloody Six In The Name Of Blood ‎(LP, Album) Mausoleum Records, Mausoleum Records SKULL 8390, SKULL LP 8390 Europe 1985
C 70034 Bloody Six In The Name Of Blood ‎(LP, Album) Camel Records C 70034 Germany 1984
Blower 01-092 Bloody Six In The Name Of Blood ‎(CD, Album) Blower Records Blower 01-092 Switzerland 2009


Pooker
Saw them live on tour as supporting act for Fatithfull Breath. Their live-performance was stunning, and the gig impressed me deeply. So i went to the recordstore an catcht the new record. I was very disapointed about the bad production, it`s just a shade of them, what they live performed.
Bloody Six - In The Name Of Blood FLAC album
Performer:
Bloody Six
Title:
In The Name Of Blood
Genre:
FLAC size:
1737 mb
MP3 size:
1504 mb
WMA size:
1459 mb
Country:
Released:
Style:
Heavy Metal
Rating:
4.5
Other formats:
FLAC AUD AU VQF AHX ADX MP1
© 2018-2021 Copyrights
All rights reserved. designday.fr | Privacy Policy | DMCA | Contacts