designday
» » Walkaway With Urszula Dudziak - Live At Warsaw Jazz Festival 1991

Walkaway With Urszula Dudziak - Live At Warsaw Jazz Festival 1991 FLAC album

From 1991's 'Live At Warsaw Jazz Festival 1991', Sound Service.

Live at the Warsaw Jamboree Jazz Festival October 20, 1991. Released: January 1, 2004.

Recorded At – Warsaw Jazz Festival. Glass Mastered At – Interpress. Bass – Marek Blaszczyk. Recorded live October 25th, 1991.

Urszula Dudziak Super Band Live at Jazz Emi Poland 2009. Midnight Rain ARISTA RECORDS. Ursula Dudziak & Walkway: Live at the Warsaw Jamboree Jazz Festival 1991 Multiple Formats Alpha Centauri Ent. 2005. Papaya (disco version) (promo) (45/7") arista 0153.

02 AUDIO TITLE "Jokes" PERFORMER "Walkaway with Urszula Dudziak" INDEX 01 05:56:60 TRACK 03 AUDIO TITLE "Don't Cry In The Rain" PERFORMER "Walkaway with Urszula Dudziak" INDEX 01 10:11:27 TRACK 04 AUDIO TITLE "Help Yourself" PERFORMER "Walkaway with Urszula Dudziak" INDEX 01 22:17:55 TRACK 05 AUDIO TITLE "Ballad For You" PERFORMER "Walkaway with Urszula Dudziak" INDEX.

Tracklist: 1. Monto (5:57) 2. Jokes (4:15) 3. Don't Cry In The Rain (12:06) 4. Help Yourself (6:54) 5. Ballad For You (4:37) 6. Minimal Samba (5:02) 7. Tequila (4:44) 8. Mladziencze Wybladly Odejdz Bo Cie Palne W Ucho (Young Pale Man, Step Away, Otherwise I Will Hit You In Your Ear) (10:19). Albert King - Thursday Night In San Francisco: Recorded Live At The Fillmore Auditorium (1990).

Warsaw Jamboree Jazz Festival. Live at the Warsaw Jamboree Jazz Festival October 20, 1991.

Download Walkaway with Urszula Dudziak - Live At Warsaw Jazz Festival 1991 - 1993, FLAC (image+. Walkaway with Urszula Dudziak (1993) - Live At Warsaw Jazz Festival 1991 covers wa 0. pg wa 0. pg wa c. pg Walkaway with Urszula Dudziak. Walkaway with Urszula Dudziak (1993) - Live At Warsaw Jazz Festival 1991.

Personnel: Urszula Dudziak - vocal (04 - 08). "Walkaway": Marek Błaszczyk - bass; Krzysztof Zawadzki - drums; Zbigniew Jakubek - keyboards; Adam Wendt - saxophone; Bernard Maseli - vibraphone. Guest: Michał Urbaniak - violin (08). FLAC(cue, log)/Cover/350MB. Скрытый текст могут видеть только зарегистрированные пользователи, нажав "Спасибо". Текущее время: 09:06.

Tracklist Hide Credits

1 Monto
Written-By – Adam Wendt
5:57
2 Jokes
Written-By – Bernard Maseli
4:15
3 Don't Cry In The Rain
Written-By – Bernard Maseli
12:06
4 Help Yourself
Written-By – Bernard Maseli
6:54
5 Ballad For You
Written-By – Peter Burman
4:37
6 Minimal Samba
Written-By – Christoph Spendel
5:02
7 Tequila
Written-By – Chuck Rio
4:44
8 Mladziencze Wybladly Odejdz Bo Cie Palne W Ucho (Young Pale Man, Step Away, Otherwise I Will Hit You In Your Ear)
Violin – Michael Urbaniak*Written-By – Bernard Maseli
10:19

Companies, etc.

  • Licensed From – San Juan Music Group
  • Distributed By – Sound-Service Bellaphon International
  • Recorded At – Warsaw Jazz Festival
  • Glass Mastered At – Interpress

Credits

  • Bass – Marek Blaszczyk*
  • Drums – Krzysztof Zawadzki
  • Keyboards – Zbigniew Jakubek
  • Saxophone – Adam Wendt
  • Vibraphone – Bernard Maseli
  • Vocals – Urszula Dudziak

Notes

Recorded live October 25th, 1991.

Barcode and Other Identifiers

  • Barcode: 4003099 866423
  • Label Code: LC 6723
  • Matrix / Runout (Printed on front outer ring): IP 660.50.003 M1
  • Matrix / Runout (Stamped on front inner ring): Made by INTERPRESS Germany 11
  • Rights Society: GEMA

Other versions

Category Artist Title (Format) Label Category Country Year
60037 Urszula Dudziak With Walkaway* Urszula Dudziak With Walkaway* - Live At Warsaw Jazz Festival ‎(DVD-V) Aurophon 60037 Germany 2005
760.50.003 Walkaway* With Urszula Dudziak Walkaway* With Urszula Dudziak - Live At Warsaw Jazz Festival 1991 ‎(VHS) Jazzmen 760.50.003 Germany 1994


Walkaway With Urszula Dudziak - Live At Warsaw Jazz Festival 1991 FLAC album
Performer:
Title:
Live At Warsaw Jazz Festival 1991
Genre:
FLAC size:
1563 mb
MP3 size:
1485 mb
WMA size:
1730 mb
Country:
Released:
Style:
Jazz-Rock, Latin Jazz
Rating:
4.1
Other formats:
ADX TTA MP2 MMF MOD ASF APE
© 2018-2021 Copyrights
All rights reserved. designday.fr | Privacy Policy | DMCA | Contacts