designday
» » Time - Život U Čizmama S Visokom Petom

Time - Život U Čizmama S Visokom Petom FLAC album

The first album (Time - 1972) has a prominent Hammond organ, piano and flute. Time II - 1975 has a harder sound and includes several ballads. The third album (Život u čizmama s visokom petom - 1976) may be considered to have a jazz-funk production style. The most popular songs were "Da li znaš da te volim", "Rock 'n' roll u Beogradu", "Istina mašina" and others.

Listen free to Time – Život u čizmama s visokom petom (Igraj narode moj, Jer je sve u pjesmi što čovjeku treba and more). 8 tracks (). Discover more music, concerts, videos, and pictures with the largest catalogue online at Last.

ivot u čizmama s visokom petom. Release group by Time.

On this page you can listen to mp3 music free or download album or mp3 track to your PC, phone or tablet.

On this page you can not listen to mp3 music free or download album or mp3 track to your PC, phone or tablet. All materials are provided for educational purposes. Funk, Soul music Jazz music Rock music. Released at: This album was released on the label PGP RTB (catalog number ZK 50070). This album was released in 1976 year. Format of the release is.

Time (16) ‎– Život U Čizmama S Visokom Petom. Label: PGP Rtb ‎– lp 55 5292. Format: Vinyl, LP, Album.

Zivot u cizmama s visokom petom" (English: The Life in the High-Heeled Boots) was coupled with "Time II" for a CD re-release under the title "TIME & Dado Topic", issued in 1996, where two of the original album tracks were replaced with two hit-singles from 1976. This album is not recommended for strict prog fans, but more flexible listeners will find some fine music here nonetheless. ivot u čizmama s visokom petom Tracklist. Producers Vladimir Mihaljek Miha. From the Album The Ultimate Collection. ivot U Čizmama S Visokom Petom.

ivot U Čizmama Sa Visokom Petom 8:32 7 Ispovjest Jednog Sarajlije 5:05 8 Tini-Tina 4:07 9 Rokenrol U Beogradu 4:24 10 London Decembra '75 5:29 11 Jedna Mala Porodica 4:32 12 Divlje Guske 7:08 13 Živjeti Slobodno 3:30 14 Hallo Honey 3:42 15 Poželi Nešto 3:23 Состав: - Dado Topic, vocal - Vedran Bozic . sve u pjesmi" PERFORMER "TIME" INDEX 01 00:00:00 FILE "06 - Zivot u cizmama s visokom petom. wav" WAVE TRACK 06 AUDIO TITLE "Zivot u cizmama s visokom petom" PERFORMER "TIME" INDEX 01 00:00:00 FILE "07 - Ispovjest jedne Sarajlije. wav" WAVE TRACK 07 AUDIO TITLE "Ispovjest jedne Sarajlije" PERFORMER "TIME" INDEX 01 00:00:00 FILE "08 - Tini-Tina.

Tracklist Hide Credits

A1 Igraj Narode Moj
A2 Jer Sve Je U Pjesmi Što Čovjeku Treba
A3 London, Decembar 75.
A4 Nitko Ne Zna Zašto
B1 Rock'n'roll U Beogradu
B2 Superstar
B3 Život U Čizmama S Visokom Petom
B4 Ispovjest Jednog Sarajlije
Music By – Christopher Nichols*

Credits

  • Lyrics By – Dado Topić
  • Music By – Dado Topić (tracks: A1 to B3)

Other versions

Category Artist Title (Format) Label Category Country Year
LP 55 5292 Time Život U Čizmama S Visokom Petom ‎(LP, Album) PGP RTB LP 55 5292 Yugoslavia 1976
LP 55-5292 Time Život U Čizmama S Visokom Petom ‎(LP, Album, MP, RE) PGP RTB LP 55-5292 Yugoslavia 1976
MCD 167 Time Život U Čizmama Sa Visokom Petom ‎(CD, Comp) Taped Pictures, PGP RTS MCD 167 Slovenia 1996


Time  - Život U Čizmama S Visokom Petom FLAC album
Performer:
Title:
Život U Čizmama S Visokom Petom
Genre:
FLAC size:
1599 mb
MP3 size:
1211 mb
WMA size:
1822 mb
Country:
Released:
Style:
Fusion, Prog Rock, Funk
Rating:
4.1
Other formats:
AAC MP1 AHX ASF AC3 AUD XM
© 2018-2021 Copyrights
All rights reserved. designday.fr | Privacy Policy | DMCA | Contacts