designday
» » Toby Beau - If You Believe

Toby Beau - If You Believe FLAC album

Best known for their 1978 soft-rock hit "My Angel Baby," Toby Beau was led by vocalist Balde Silva, who formed the group in Texas with guitarists Danny McKenna and Ron Ross, bassist Steve Zipper and drummer.

Toby Beau is a Texas band formed in the early 1970s perhaps best known for the 1978 hit single, "My Angel Baby". The band is still in existence today and continues to perform on the club circuit. The band's name was based from one of the last original wooden shrimp boats docked in the Gulf Coast community of Port Isabel, Texas.

If You Believe ‎(LP, Album). If You Believe ‎(LP, Album). If You Believe ‎(CD, Album, RE). RCA Records.

Toby Beau is a Texas band formed in the early 1970s, best known for the hit single "My Angel Baby" in 1978. Though little is known around the world about this band past this top fifteen single, the band is still in existence today, and continues to perform in the club circuit. Formed in the Rio Grande Valley, the original members included guitarists Danny McKenna, Balde Silva, Art Mendoza, bassist Steve Zipper and drummer Rob Young.

Toby beau - if you believe. Toby Beau - As Far As I Can See. Toby Beau, If You Believe. Toby Beau- If You Believe. Toby Beau, If I were you. Toby beau - you caught me with my love down. Toby Beau - Bulldog (Vinyl - 1978).

Toby Beau Album 2. Dream Girl. It Must Have Been The Moonlight. Then You Can Tell Me Goodbye. You And I Should Be Forever. I Just Wanna Love You. Boogie Woogie Melody. Little Miss American Dream. You Caught Me With My Love Down. As Far As I Can See. My Dream Lover.

Toby Beau download free and listen online. Toby Beau If You Believe. Toby Beau Broken Down Cowboy. Toby Beau My Angel Baby.

Loading the chords for 'TOBY BEAU - IF YOU BELIEVE'. Do you value our service? Our goal is to help musicians like you to learn to play the music they love. We can only maintain and improve Chordify if paying members keep supporting us. Become a paying member too!

album Weekly Top. album Pop Hotlist RARE & UNRELEASED SONGS. Toby Beau - My Angel Baby. Toby beau - if you believe.

Tracklist

Could It Be Love 4:06
If I Were You 3:24
One Needs Another 3:05
If You Believe 3:58
Ships In The Night 3:48
Little Miss American Dream 2:50
Give Me A Sign 3:08
You Caught Me With My Love Down 3:20
As Far As I Can See 3:27
My Dream Lover 3:55

Versions

Category Artist Title (Format) Label Category Country Year
AFL1-3575 Toby Beau If You Believe ‎(LP, Album) RCA Victor AFL1-3575 US 1980
AFL1-3575 Toby Beau If You Believe ‎(LP, Album) RCA Victor AFL1-3575 Canada 1980
BVCM-37231 Toby Beau If You Believe ‎(CD, Album, RE) RCA Records BVCM-37231 Japan 2001
SICP-4886 Toby Beau If You Believe ‎(CD, Album, Ltd, RE, RM) RCA Records SICP-4886 Japan 2016
Vizuru
foobar2000 1.3.17 / Dynamic Range Meter 1.1.1log date: 2018-11-05 21:55:29--------------------------------------------------------------------------------Analyzed: Toby Beau / If You Believe [JP 2001 CD]--------------------------------------------------------------------------------DR Peak RMS Duration Track--------------------------------------------------------------------------------DR8 0.00 dB -10.35 dB 4:11 01-Could It Be LoveDR8 -0.01 dB -10.74 dB 3:29 02-If I Were YouDR8 0.00 dB -9.16 dB 3:08 03-One Needs AnotherDR8 -0.01 dB -9.74 dB 4:03 04-If You BelieveDR8 -0.08 dB -10.36 dB 3:54 05-Ships In The NightDR7 0.00 dB -8.68 dB 2:58 06-Little Miss American DreamDR8 -0.01 dB -9.57 dB 3:13 07-Give Me A SignDR8 0.00 dB -10.00 dB 3:24 08-You Caught Me With My Love DownDR8 0.00 dB -9.74 dB 3:31 09-As Far As I Can SeeDR8 -0.05 dB -10.57 dB 3:57 10-My Dream Lover--------------------------------------------------------------------------------Number of tracks: 10Official DR value: DR8Samplerate: 44100 HzChannels: 2Bits per sample: 16Bitrate: 965 kbpsCodec: ALAC================================================================================
Toby Beau - If You Believe FLAC album
Performer:
Title:
If You Believe
Genre:
FLAC size:
1549 mb
MP3 size:
1914 mb
WMA size:
1894 mb
Country:
Released:
Style:
Soft Rock
Rating:
4.4
Other formats:
MIDI WAV ASF MP1 WMA VOC AA
© 2018-2021 Copyrights
All rights reserved. designday.fr | Privacy Policy | DMCA | Contacts