designday
» » Phil Woods / Gene Quill / Sahib Shihab / Hal Stein - Four Altos

Phil Woods / Gene Quill / Sahib Shihab / Hal Stein - Four Altos FLAC album

Complete your Phil Woods, Gene Quill, Sahib Shihab, Hal Stein collection.

Listen online for free, and download the album to a computer or phone in Mp3.

Phil Woods,Gene Quill (as), George Syran (p), Teddy Kotick (b), Nick Stabulas (ds) Album:" Phil & Quill With Prestige, Phil Woods & Gene Quill Quintet.

Интернет-магазин yoox. Огромный выбор одежды обуви и аксессуаров

1 2 3 4 5 6 7 8 9 10 11 12 13 14 15 16 17 18 19 20 21 22 23 24 25 26 27 28 29 30 31 32 33 34 35 36 37 38 39 40 41 42 43 44 45 46 47 48 49 50.

1 2 3 4 5. Artist songs. Tito Puente, Phil Woods, Tito Puente & His Latin Ensemble.

1. Pedal Eyes 2. Kokochee 3. No More Nights 4. Kinda Kanonic 5. Don't Blame Me 6. Staggers. personnel : Gene Quill - alto sax Sahib Shihab - alto sax Hal Stein - alto sax Phil Woods - alto sax Mal Waldron - piano Tommy Potter - bass Louis Hayes - drums.

Recorded in Hackensack, NJ; February 9, 1957. This is the 1st pressing of this album Deep Groove, RVG, Abbey Records. Matrix, Runout (Etched side A ): PRLP-7116-A (AB).

Phil Woods, The Greg Abate Quintet - Roger Over and Out The Greg Abate Quintet Featuring Phil Woods, 2012 06:21. Phil Woods, The Greg Abate Quintet - Rocco's Place The Greg Abate Quintet Featuring Phil Woods, 2012 08:03.

Sahib Shihab, Hal Stein" INDEX 00 05:06:32 FILE "04 - Kinda Kanonic. wav" WAVE INDEX 01 00:00:00 TRACK 05 AUDIO TITLE "Don't Blame Me" PERFORMER "Phil Woods, Gene Quill, Sahib Shihab, Hal Stein" INDEX 00 06:06:35 FILE "05 - Don't Blame M. av" WAVE INDEX 01 00:00:00 TRACK 06 AUDIO TITLE "Staggers" PERFORMER "Phil Woods, Gene Quill, Sahib Shihab, Hal Stein" INDEX 00 04:57:38 FILE "06 - Staggers. wav" WAVE INDEX 01 00:00:00. Лог проверки качества. auCDtect: CD records authenticity detector, version . Gene Quill (alto sax) Sahib Shihab (alto sax) Hal Stein (alto sax) Phil Woods (alto sax) Mal Waldron (piano) Tommy Potter (bass) Louis Hayes (drums) Rudy Van Gelder Studio, Hackensack, NJ, February 9, 1957. Приватный: Нет (DHT включён).

Artist: Phil Woods, Sahib Shihab, Gene Quill, Hal Stein Title: Four Altos Genre: Jazz Type: Used - LP Label: Prestige Catalog ID: VIJ 5044 M Country: Japan Our ID: 65725. View other items by this Artist View other items on this Label.

Tracklist

A1 Pedal Eyes
A2 Kokochee
A3 No More Eyes
B1 Kinda Kanonic
B2 Don't Blame Me
B3 Staggers

Other versions

Category Artist Title (Format) Label Category Country Year
7116, PRLP 7116 Phil Woods, Gene Quill, Sahib Shihab, Hal Stein Phil Woods, Gene Quill, Sahib Shihab, Hal Stein - Four Altos ‎(LP, Album, Mono) Prestige, Prestige 7116, PRLP 7116 US 1958
32-074 Phil Woods, Gene Quill, Sahib Shihab, Hal Stein Phil Woods, Gene Quill, Sahib Shihab, Hal Stein - 4 Altos ‎(LP, Album, Mono) Esquire 32-074 UK 1958
VIJ-5044(M) Phil Woods, Gene Quill, Sahib Shihab, Hal Stein Phil Woods, Gene Quill, Sahib Shihab, Hal Stein - Four Altos ‎(LP, Album, Mono, RE) Prestige VIJ-5044(M) Japan 1977
LPJ-70028 Phil Woods, Gene Quill, Sahib Shihab, Hal Stein Phil Woods, Gene Quill, Sahib Shihab, Hal Stein - Four Altos ‎(LP, Album, Promo, RE) Prestige LPJ-70028 Japan 1974
LPJ-70028 Phil Woods, Gene Quill, Sahib Shihab, Hal Stein Phil Woods, Gene Quill, Sahib Shihab, Hal Stein - Four Altos ‎(LP, Album, RE) Prestige LPJ-70028 Japan 1974
Phil Woods / Gene Quill / Sahib Shihab / Hal Stein - Four Altos FLAC album
Performer:
Title:
Four Altos
Genre:
FLAC size:
1176 mb
MP3 size:
1100 mb
WMA size:
1494 mb
Country:
Released:
Style:
Bop, Contemporary Jazz
Rating:
4.7
Other formats:
MMF MP1 XM VQF AIFF DMF MP2
© 2018-2021 Copyrights
All rights reserved. designday.fr | Privacy Policy | DMCA | Contacts